Please select Into the mobile phone version | Continue to access the computer ver.
Kids Having Fun At Audra State Park WV
227 6 2019-7-28
Uploading and Loding Picture ...(0/1)
o(^-^)o
Roger1167
Second Officer
Flight distance : 1510728 ft
  • >>>
United States
Offline

https://www.dropbox.com/s/88tl1ucxkrex8k7/2019-07-11%2019.16.56.mp4?dl=0
2019-7-28
Use props
Roger1167
Second Officer
Flight distance : 1510728 ft
  • >>>
United States
Offline

Can someone please tell me why the quality of this clip is so bad.  Is it because of dropbox?   If dropbox is the problem can someone please tell me what is the best way to post on this forum. Please help. Thanks
2019-7-28
Use props
DJI Stephen
Super Moderator

Offline

Hello and good day Roger1167. Thank you for sharing this link and this video you have created. It is great to see children having fun. Great work and two thumbs up.
2019-7-28
Use props
fansfe82067d
First Officer
Australia
Offline

Most people use YouTube - which has its limitations but people know what they are.
2019-7-28
Use props
jacksonnai
Captain
Malaysia
Offline

Cool! Nice video
2019-7-29
Use props
jacksonnai
Captain
Malaysia
Offline

Roger1167 Posted at 7-28 09:56
Can someone please tell me why the quality of this clip is so bad.  Is it because of dropbox?   If dropbox is the problem can someone please tell me what is the best way to post on this forum. Please help. Thanks

You can post on youtube and share it here, it will show a preview as well
2019-7-29
Use props
Ray-CubeAce
Captain

United Kingdom
Offline

Here is the video information from your dropbox video file.

Format                                   : MPEG-4
Format profile                           : QuickTime
Codec ID                                 : qt   0000.00 (qt  )
File size                                : 117 MiB
Duration                                 : 2 min 8 s
Overall bit rate                         : 7 651 kb/s
Encoded date                             : UTC 2019-07-11 23:16:56
Tagged date                              : UTC 2019-07-11 23:17:14
Writing library                          : Apple QuickTime

Video
ID                                       : 1
Format                                   : AVC
Format/Info                              : Advanced Video Codec
Format profile                           : Main@L4.1
Format settings                          : CABAC / 2 Ref Frames
Format settings, CABAC                   : Yes
Format settings, Reference frames        : 2 frames
Format settings, GOP                     : M=1, N=15
Codec ID                                 : avc1
Codec ID/Info                            : Advanced Video Coding
Duration                                 : 2 min 8 s
Bit rate                                 : 7 510 kb/s
Width                                    : 1 280 pixels
Height                                   : 720 pixels
Display aspect ratio                     : 16:9
Frame rate mode                          : Constant
Frame rate                               : 30.000 FPS
Color space                              : YUV
Chroma subsampling                       : 4:2:0
Bit depth                                : 8 bits
Scan type                                : Progressive
Bits/(Pixel*Frame)                       : 0.272
Stream size                              : 115 MiB (98%)
Title                                    : Core Media Video
Encoded date                             : UTC 2019-07-11 23:16:56
Tagged date                              : UTC 2019-07-11 23:17:14
Color range                              : Limited
Color primaries                          : BT.709
Transfer characteristics                 : BT.709
Matrix coefficients                      : BT.601
Codec configuration box                  : avcC

Audio
ID                                       : 2
Format                                   : AAC LC
Format/Info                              : Advanced Audio Codec Low Complexity
Codec ID                                 : mp4a-40-2
Duration                                 : 2 min 8 s
Source duration                          : 2 min 8 s
Bit rate mode                            : Constant
Bit rate                                 : 128 kb/s
Channel(s)                               : 2 channels
Channel layout                           : L R
Sampling rate                            : 48.0 kHz
Frame rate                               : 46.875 FPS (1024 SPF)
Compression mode                         : Lossy
Stream size                              : 1.99 MiB (2%)
Source stream size                       : 1.99 MiB (2%)
Title                                    : Core Media Audio
Encoded date                             : UTC 2019-07-11 23:16:56
Tagged date                              : UTC 2019-07-11 23:17:14

For whatever reason the video is half the dimensional size it should be.


2019-7-30
Use props
Advanced
You need to log in before you can reply Login | Register now

Credit Rules